Akiko Kuwagata - Meditation: Froberger's Vision (2018) [Official Digital Download 24/192]

Posted By: SERTiL
Akiko Kuwagata - Meditation: Froberger's Vision (2018) [Official Digital Download 24/192]

Akiko Kuwagata - Meditation: Froberger's Vision (2018)
FLAC (tracks) 24-bit/192 kHz | Time - 67:28 minutes | 3.28 GB
Studio Master, Official Digital Download | Artwork: Front Cover

On harpsichord, Akiko Kuwagata pays tribute to the German Baroque composer and keyboard virtuoso Johann Jakob Froberger. Kuwagata devotes his performance on this album to historical accuracy and respect to Froberger's original musical intentions.

Tracklist:
1. Suite (Partita) No. 9 in G Minor, FbWV 609 : Suite (Partita) No. 9 in G Minor, FbWV 609 10:53
2. Suite (Partita) No. 10 in A Minor, FbWV 610 : Suite (Partita) No. 10 in A Minor, FbWV 610 10:05
3. Suite (Partita) No. 8 in A Major, FbWV 608 : Suite (Partita) No. 8 in A Major, FbWV 608 07:29
4. Suite (Partita) No. 7 in E Minor, FbWV 607 : Suite (Partita) No. 7 in E Minor, FbWV 607 11:58
5. Suite (Partita) No. 11 in D Major, FbWV 611 : Suite (Partita) No. 11 in D Major, FbWV 611 08:42
6. Suite (Partita) No. 12 in C Major, FbWV 612 : Suite (Partita) No. 12 in C Major, FbWV 612 12:39
7. Partita in D Major, FbWV 611a : I. Meditation faist sur ma Mort future 05:42

foobar2000 1.3.7 / Dynamic Range Meter 1.1.1
log date: 2019-05-22 15:54:15

––––––––––––––––––––––––––––––––––––––––
Analyzed: Akiko Kuwagata / Meditation: Froberger's Vision
––––––––––––––––––––––––––––––––––––––––

DR Peak RMS Duration Track
––––––––––––––––––––––––––––––––––––––––
DR13 -6.35 dB -22.66 dB 10:54 01-Suite (Partita) No. 9 in G Minor, FbWV 609
DR14 -5.53 dB -22.39 dB 10:05 02-Suite (Partita) No. 10 in A Minor, FbWV 610
DR13 -6.11 dB -22.48 dB 7:30 03-Suite (Partita) No. 8 in A Major, FbWV 608
DR13 -5.07 dB -22.31 dB 11:58 04-Suite (Partita) No. 7 in E Minor, FbWV 607
DR13 -6.59 dB -22.73 dB 8:42 05-Suite (Partita) No. 11 in D Major, FbWV 611
DR13 -4.73 dB -23.14 dB 12:40 06-Suite (Partita) No. 12 in C Major, FbWV 612
DR14 -8.81 dB -25.32 dB 5:42 07-I. Meditation faist sur ma Mort future
––––––––––––––––––––––––––––––––––––––––

Number of tracks: 7
Official DR value: DR13

Samplerate: 192000 Hz
Channels: 2
Bits per sample: 24
Bitrate: 6847 kbps
Codec: FLAC
================================================================================


Thanks to the Original customer.